<?xml version="1.0" standalone="no"?>
<!DOCTYPE svg PUBLIC "-//W3C//DTD SVG 1.1//EN" "http://www.w3.org/Graphics/SVG/1.1/DTD/svg11.dtd" >
<svg xmlns="http://www.w3.org/2000/svg">
<metadata></metadata>
<defs>
<font id="genericonsregular" horiz-adv-x="2048" >
<font-face units-per-em="2048" ascent="1638" descent="-410" />
<missing-glyph horiz-adv-x="500" />
<glyph unicode="&#x25fc;" horiz-adv-x="500" d="M0 0z" />
<glyph unicode="&#xf100;" d="M512 512v128h768v-128h-768zM512 768v128h256v-128h-256zM512 1024v128h640v-128h-640zM512 1280v128h1024v-128h-1024zM896 768v128h640v-128h-640zM1280 1024v128h256v-128h-256z" />
<glyph unicode="&#xf101;" d="M256 1024q0 209 103 385.5t279.5 279.5t385.5 103t385.5 -103t279.5 -279.5t103 -385.5t-103 -385.5t-279.5 -279.5t-385.5 -103t-385.5 103t-279.5 279.5t-103 385.5zM768 1024q0 -106 75 -181t181 -75t181 75t75 181t-75 181t-181 75t-181 -75t-75 -181z" />
<glyph unicode="&#xf102;" d="M128 384v896l512 128l128 256h512l128 -256l512 -128v-896h-1792zM256 1440v160h256v-96zM576 960q0 -185 131.5 -316.5t316.5 -131.5q186 0 317 131.5t131 316.5q0 186 -131 317t-317 131q-185 0 -316.5 -131t-131.5 -317zM704 960q0 133 93.5 226.5t226.5 93.5 t226.5 -93.5t93.5 -226.5q0 -132 -93.5 -226t-226.5 -94t-226.5 94t-93.5 226z" />
<glyph unicode="&#xf103;" d="M128 512v384h384v-384h-384zM128 1024v384h896v-384h-896zM640 512v384h384v-384h-384zM1152 512v896h896v-896h-896z" />
<glyph unicode="&#xf104;" d="M512 384v1280l1152 -640z" />
<glyph unicode="&#xf105;" d="M640 1408q0 159 112.5 271.5t271.5 112.5t271.5 -112.5t112.5 -271.5q0 -124 -71.5 -222t-184.5 -138v-536l-256 -128v664q-113 40 -184.5 138t-71.5 222z" />
<glyph unicode="&#xf106;" d="M256 896v640h640v-640q0 -212 -150 -362t-362 -150v256q106 0 181 75t75 181h-384zM1152 896v640h640v-640q0 -212 -150 -362t-362 -150v256q106 0 181 75t75 181h-384z" />
<glyph unicode="&#xf107;" d="M512 704v384q0 97 53 176.5t139 116.5v-151q-64 -57 -64 -142v-384q0 -80 56 -136t136 -56t136 56t56 136v384q0 85 -64 142v151q86 -37 139 -116.5t53 -176.5v-384q0 -133 -93.5 -226.5t-226.5 -93.5t-226.5 93.5t-93.5 226.5zM768 1088v384q0 133 93.5 226.5 t226.5 93.5t226.5 -93.5t93.5 -226.5v-384q0 -97 -53 -176.5t-139 -116.5v151q64 57 64 142v384q0 80 -56 136t-136 56t-136 -56t-56 -136v-384q0 -85 64 -142v-151q-86 37 -139 116.5t-53 176.5z" />
<glyph unicode="&#xf108;" d="M0 1152v384q0 96 80 176t176 80h1024q96 0 176 -80t80 -176v-384q0 -96 -80 -176t-176 -80h-448l-448 -448v448h-128q-96 0 -176 80t-80 176zM768 640l128 128h384q168 0 276 108t108 276v384q96 0 176 -80t80 -176v-384q0 -96 -80 -176t-176 -80h-128v-448l-448 448 h-320z" />
<glyph unicode="&#xf109;" d="M256 768v512h384l384 384v-1280l-384 384h-384zM1205 843q75 75 75 181t-75 181l91 91q26 -27 46.5 -57.5t35 -65t22.5 -72.5t8 -77q0 -78 -29.5 -148t-82.5 -124zM1386 662q71 71 110.5 164.5t39.5 197.5t-39.5 197.5t-110.5 164.5l91 91q88 -89 137.5 -206t49.5 -247 q0 -87 -23 -170t-64.5 -153.5t-99.5 -129.5z" />
<glyph unicode="&#xf200;" d="M0 1024q0 208 81 398t218.5 327t327 218t397.5 81q209 0 398.5 -81t326.5 -218t218 -326.5t81 -398.5q0 -335 -195.5 -601.5t-504.5 -369.5q-36 -7 -53 8.5t-17 40.5q0 4 0.5 102t0.5 179q0 130 -69 189q77 9 137.5 24.5t124.5 51.5t107 89t70.5 140t27.5 201 q0 161 -105 274q6 15 11 35t9 56t-3.5 83.5t-26.5 96.5q-4 1 -10.5 2t-32 -1t-55.5 -11t-79.5 -33.5t-104.5 -61.5q-118 33 -256 35q-138 -2 -256 -35q-55 37 -104 61.5t-80 33t-54.5 11.5t-33.5 1l-10 -2q-58 -146 -10 -271q-105 -115 -105 -274q0 -114 27.5 -201 t70.5 -140t107 -89t124.5 -52t136.5 -24q-53 -47 -65 -137q-28 -13 -59.5 -20t-75.5 -6.5t-87.5 28.5t-75.5 83q-2 4 -6.5 10.5t-19 24t-31.5 31t-44 25.5t-56 14h-10t-18.5 -3.5t-17 -9t4 -18.5t34.5 -31q3 -1 7.5 -4t19 -14.5t27.5 -27t30 -43.5t30 -61q1 -3 2.5 -7t8 -17 t15.5 -25.5t24.5 -28t33.5 -28t45 -23.5t57.5 -16t71.5 -3.5t87 11.5q0 -50 0.5 -110t0.5 -64q0 -24 -17 -40t-53 -10q-309 103 -504.5 370t-195.5 602z" />
<glyph unicode="&#xf201;" d="M0 1024q0 206 82 395.5t219.5 327t327 219.5t395.5 82t395.5 -82t327 -219.5t219.5 -327t82 -395.5t-82 -395.5t-219.5 -327t-327 -219.5t-395.5 -82t-395.5 82t-327 219.5t-219.5 327t-82 395.5zM128 1024q0 -167 58 -319.5t166 -272.5q125 205 339 360t445 232 q-16 48 -80 176q-282 -86 -481.5 -111t-446.5 -1v-64zM160 1232q194 -22 444 14t388 82q-141 282 -320 528q-194 -85 -329.5 -247.5t-182.5 -376.5zM480 320q216 -192 544 -192q181 0 368 80q-33 300 -208 688q-222 -74 -410 -225.5t-294 -350.5zM832 1904 q102 -166 304 -512q6 2 86 31t118.5 45t108 47t122 64t93.5 69q-126 126 -290.5 199t-349.5 73q-32 0 -96 -8t-96 -8zM1200 1248q22 -29 36.5 -54.5t34 -67.5t25.5 -54q170 33 336 30t288 -30q-26 285 -160 464q-71 -57 -162 -104.5t-214.5 -100.5t-183.5 -83zM1344 928 q14 -27 43 -103t74.5 -231t74.5 -306q156 108 258 278t126 362q-276 46 -576 0z" />
<glyph unicode="&#xf202;" d="M128 465q48 -5 88 -5q256 0 456 157q-119 2 -213 73.5t-130 182.5q39 -7 69 -7q47 0 97 13q-127 26 -211 127t-84 233v5q80 -43 167 -46q-76 50 -120 131t-44 175q0 101 50 185q138 -170 335 -271.5t423 -112.5q-10 39 -10 84q0 152 108 259.5t260 107.5q160 0 268 -116 q128 26 233 89q-42 -132 -161 -203q109 13 211 58q-73 -111 -183 -191q0 -7 0.5 -23t0.5 -24q0 -122 -31 -246t-89.5 -241t-149.5 -218.5t-204 -177.5t-260.5 -119.5t-311.5 -43.5q-305 0 -564 165z" />
<glyph unicode="&#xf203;" d="M128 384v1280q0 106 75 181t181 75h1280q106 0 181 -75t75 -181v-1280q0 -106 -75 -181t-181 -75h-282v711h270l12 260h-282v192v12q0 60 21.5 87.5t87.5 27.5l166 -1l6 242q-78 10 -183 10q-94 0 -167 -27.5t-117 -74.5t-66 -105.5t-22 -126.5v-236h-254v-260h254v-711 h-724q-106 0 -181 75t-75 181z" />
<glyph unicode="&#xf204;" d="M640 969v303h222v258q0 78 26 147t77 124t136.5 87t194.5 32q55 0 108 -3t79 -6l26 -3l-7 -282h-193q-76 0 -101.5 -32t-25.5 -101v-14v-207h329l-14 -303h-315v-841h-320v841h-222z" />
<glyph unicode="&#xf205;" d="M128 1024q0 182 71 348t191 286t286 191t348 71t348 -71t286 -191t191 -286t71 -348t-71 -348t-191 -286t-286 -191t-348 -71t-348 71t-286 191t-191 286t-71 348zM218 1024q0 -236 125 -430.5t330 -294.5l-385 1053q-70 -156 -70 -328zM351 1466h52q37 0 91 2.5t89 4.5 l34 3q21 1 30.5 -14.5t2.5 -32.5t-27 -20q-44 -5 -93 -7l294 -873l176 529l-125 344l-85 7q-20 2 -27.5 19t2.5 33t30 15q133 -10 212 -10q38 0 91.5 2.5t88.5 4.5l35 3q16 1 25.5 -8.5t10 -22t-7 -23.5t-23.5 -13q-43 -5 -92 -7l291 -866l81 268q24 79 32.5 107.5 t18.5 74.5t10 79q0 46 -11.5 90.5t-23.5 71t-32 60.5q-2 4 -11.5 19t-12 20t-10.5 18.5t-11 19t-9 17.5t-8.5 19t-6.5 18t-5.5 19.5t-3 18.5t-1.5 20q0 57 39 100t97 43l10 -1q-110 101 -249.5 156.5t-294.5 55.5q-207 0 -385 -98t-288 -266zM796 251q112 -33 228 -33 q138 0 268 46q-4 6 -6 11l-248 679zM1429 328q183 106 292 291.5t109 404.5q0 207 -99 386q5 -40 5 -82q0 -135 -61 -289z" />
<glyph unicode="&#xf206;" d="M128 486v485q125 -127 330 -127q30 0 59 3q-32 -61 -32 -118q0 -33 13 -63t28.5 -48.5t45.5 -47.5q-18 0 -54.5 -0.5t-55.5 -0.5q-183 0 -334 -83zM128 1599v65q0 106 75 181t181 75h1280q106 0 181 -75t75 -181v-128h-256v256h-128v-256h-256v-128h256v-256h128v256h256 v-1024q0 -106 -75 -181t-181 -75h-507q5 28 5 50q0 143 -46.5 230t-189.5 194q-3 2 -20.5 15t-25 19t-25.5 20t-27.5 22.5t-24 22t-23 23.5t-17 22t-12.5 22.5t-4 20.5q0 52 23 87t99 94q180 141 180 324q0 113 -45 204.5t-128 139.5h160l135 142h-607q-127 0 -241.5 -49 t-194.5 -132zM139 309q57 85 166 137.5t237 51.5q84 -1 158 -26q19 -13 62 -42.5t61 -42t48 -37t44.5 -41.5t29 -41.5t21.5 -49.5q7 -29 7 -66q0 -16 -1 -24h-588q-85 0 -153 50.5t-92 130.5zM228 1307q-21 161 50.5 269.5t194.5 104.5q121 -4 215.5 -118.5t116.5 -277.5 q21 -160 -43 -256t-187 -92q-125 4 -225.5 108t-121.5 262z" />
<glyph unicode="&#xf207;" d="M256 1553q0 -73 50.5 -122t131.5 -49h2q84 0 135 49t51 122q-1 75 -51 123t-133 48t-134.5 -48.5t-51.5 -122.5zM275 256h330v991h-330v-991zM787 256h329v553q0 54 11 81q20 50 63 85t106 35q58 0 96 -29t54.5 -77.5t16.5 -117.5v-530h329v568q0 112 -28.5 198 t-80 139.5t-120 81t-150.5 27.5q-36 0 -69 -5.5t-58.5 -15t-49 -23t-40 -27t-32.5 -31t-26.5 -31.5t-21.5 -31v141h-329q1 -26 1.5 -138t0.5 -252.5t-0.5 -277.5t-1.5 -230v-93z" />
<glyph unicode="&#xf208;" d="M128 384v1280q0 106 75 181t181 75h1280q106 0 181 -75t75 -181v-1280q0 -106 -75 -181t-181 -75h-1280q-106 0 -181 75t-75 181zM384 1422q0 -58 40.5 -97.5t105.5 -39.5h1q67 0 108.5 39.5t41.5 97.5q-2 60 -42 98.5t-106 38.5q-67 0 -108 -39t-41 -98zM400 384h263 v793h-263v-793zM809 384h264v443q0 45 8 64q16 40 50.5 68t85.5 28q133 0 133 -179v-424h264v455q0 175 -83.5 266t-220.5 91q-50 0 -90.5 -12t-68.5 -34t-45 -41t-33 -44v112h-264v-793z" />
<glyph unicode="&#xf209;" d="M171 1260q0 109 35.5 219t110 213t179 182t254 126.5t323.5 47.5q176 0 327.5 -60.5t253.5 -161t160 -231t58 -270.5q0 -246 -85 -443t-241 -309.5t-355 -112.5q-99 0 -186.5 46.5t-121.5 110.5q-73 -290 -89 -347q-34 -123 -127 -270l-149 54q-7 167 22 290l162 688 q-40 81 -40 200q0 139 70.5 232.5t172.5 93.5q83 0 127 -53.5t44 -135.5q0 -51 -18.5 -124t-49 -170t-44.5 -154q-23 -99 37.5 -171t161.5 -72q117 0 209.5 92t142 244.5t49.5 334.5q0 214 -139 349t-387 135q-139 0 -257.5 -49.5t-197 -133t-122.5 -193t-44 -229.5 q0 -147 83 -247q18 -21 21.5 -34t-3.5 -37q-16 -61 -25 -101q-7 -24 -24.5 -32t-39.5 1q-127 51 -192.5 181.5t-65.5 300.5z" />
<glyph unicode="&#xf210;" d="M0 1024q0 208 81 398t218.5 327t327 218t397.5 81q209 0 398.5 -81t326.5 -218t218 -326.5t81 -398.5t-81 -398.5t-218 -326.5t-326.5 -218t-398.5 -81q-147 0 -290 42q74 116 103 219l72 282q28 -53 99 -90.5t151 -37.5q162 0 288.5 91.5t195.5 251t69 359.5 q0 114 -47 220t-130 187.5t-206.5 130.5t-265.5 49q-141 0 -262 -38.5t-205.5 -103t-145.5 -147.5t-89.5 -172.5t-28.5 -178.5q0 -138 53 -243.5t156 -147.5q18 -8 32.5 -1t18.5 26q2 9 10 41t11 41q5 19 2.5 30t-16.5 28q-68 78 -68 200q0 97 35.5 186t99.5 156.5t160 108 t209 40.5q201 0 313.5 -109.5t112.5 -283.5q0 -148 -40 -271.5t-115 -198t-169 -74.5q-82 0 -131.5 58.5t-30.5 138.5q11 46 35.5 125t39.5 138t15 101q0 66 -35.5 109.5t-102.5 43.5q-82 0 -139.5 -76t-57.5 -189q0 -43 8 -83.5t16 -59.5l9 -19q-113 -475 -132 -558 q-24 -97 -18 -235q-275 120 -444 374t-169 564z" />
<glyph unicode="&#xf211;" d="M160 1024q0 -172 122 -294t294 -122t294 122t122 294t-122 294t-294 122t-294 -122t-122 -294zM1056 1024q0 -172 122 -294t294 -122t294 122t122 294t-122 294t-294 122t-294 -122t-122 -294z" />
<glyph unicode="&#xf212;" d="M128 1379l84 -108q121 84 141 84q92 0 173 -287l144 -525q108 -287 265 -287q253 0 619 471q353 451 365 710q16 347 -260 355q-373 12 -505 -417q69 29 133 29q136 0 120 -152q-8 -92 -120 -268q-113 -176 -169 -176q-73 0 -133 271q-20 79 -72 407q-49 303 -258 284 q-89 -8 -265 -160q-127 -113 -262 -231z" />
<glyph unicode="&#xf213;" d="M128 768v512q0 159 112.5 271.5t271.5 112.5h1024q159 0 271.5 -112.5t112.5 -271.5v-512q0 -159 -112.5 -271.5t-271.5 -112.5h-1024q-159 0 -271.5 112.5t-112.5 271.5zM768 640l640 384l-640 384v-768z" />
<glyph unicode="&#xf214;" d="M472 1186h198v-629q0 -121 26 -187q26 -65 92 -122t161 -89q93 -31 218 -31q110 0 201 22q88 20 208 76v282q-134 -88 -271 -88q-76 0 -136 36q-44 25 -61 70q-17 46 -17 200v460h426v281h-426v453h-255q-17 -139 -62 -228q-48 -93 -121 -154q-74 -64 -181 -99v-253z" />
<glyph unicode="&#xf215;" d="M128 384v1280q0 106 75 181t181 75h1280q106 0 181 -75t75 -181v-1280q0 -106 -75 -181t-181 -75h-1280q-106 0 -181 75t-75 181zM256 384q0 -53 37.5 -90.5t90.5 -37.5h1280q53 0 90.5 37.5t37.5 90.5v768h-272q16 -66 16 -128q0 -212 -150 -362t-362 -150t-362 150 t-150 362q0 62 16 128h-272v-768zM640 1024q0 -159 112.5 -271.5t271.5 -112.5t271.5 112.5t112.5 271.5t-112.5 271.5t-271.5 112.5t-271.5 -112.5t-112.5 -271.5zM1408 1536q0 -53 37.5 -90.5t90.5 -37.5h128q53 0 90.5 37.5t37.5 90.5v128q0 53 -37.5 90.5t-90.5 37.5 h-128q-53 0 -90.5 -37.5t-37.5 -90.5v-128z" />
<glyph unicode="&#xf216;" d="M256 790v467q0 31 29 55l702 467q17 11 37 11t37 -11l702 -467q29 -24 29 -55v-467q0 -32 -29 -54l-702 -468q-17 -11 -37 -11q-18 0 -37 11l-702 468q-29 22 -29 54zM388 914l165 110l-165 110v-220zM441 790l517 -344v308l-286 191zM441 1257l231 -154l286 191v307z M791 1024l233 -156l234 156l-234 156zM1090 446l517 344l-231 155l-286 -191v-308zM1090 1294l286 -191l231 154l-517 344v-307zM1495 1024l165 -110v220z" />
<glyph unicode="&#xf217;" d="M128 1024q0 182 71 348t191 286t286 191t348 71t348 -71t286 -191t191 -286t71 -348t-71 -348t-191 -286t-286 -191t-348 -71t-348 71t-286 191t-191 286t-71 348zM208 1024q0 -221 109.5 -409t297.5 -297.5t409 -109.5q236 0 432 123.5t298 327.5q59 136 59 266 q0 117 -43.5 221.5t-118.5 182.5t-175.5 131t-215.5 73q116 -48 204 -145t127 -218q54 -151 17.5 -320t-150.5 -289q-111 -123 -276 -179t-332 -27q-168 27 -307 138t-210 270q-74 156 -67.5 338.5t93.5 335.5q88 155 238.5 260t328.5 135q2 0 35 6q-208 -16 -380.5 -128 t-272.5 -293.5t-100 -392.5zM359 998q17 -148 100 -275.5t207 -200.5q120 -71 264 -78.5t267 49.5q-76 -21 -148 -21q-149 0 -275.5 74t-200.5 201t-74 276q0 214 146 373l3 3l14 14l1 1q98 114 235 178t293 64q163 0 306 -70t241 -193q-36 57 -70 96q-104 126 -250 200.5 t-305 80.5q-157 7 -306.5 -51.5t-258.5 -169.5q-109 -107 -159 -254.5t-30 -296.5zM612 1025q8 -119 85 -217t186 -128q110 -33 221.5 8.5t170.5 134.5q61 91 50 204t-86 187q-70 77 -179.5 87t-188.5 -50q-85 -62 -105 -157q-21 -98 30 -182q50 -84 142 -108q92 -23 172 26 q38 23 64 58.5t34 76.5q17 88 -34 159q-52 72 -136 77q-83 6 -142 -54q-57 -55 -45 -138q6 -37 27.5 -68.5t52.5 -47.5q40 -21 87 -16q-46 1 -82 29t-49 71l-2 3q-14 30 -9.5 67t25.5 66q22 30 56.5 46.5t72.5 14.5t73.5 -23.5t54.5 -55.5q46 -76 8 -158 q-18 -39 -53.5 -66.5t-78.5 -35.5q-43 -9 -88.5 3.5t-78.5 43.5q-74 68 -68 169q2 65 45 118.5t109.5 77t132.5 5.5q68 -16 118.5 -70.5t65 -124.5t-9.5 -144q-37 -107 -150 -158.5t-224 -8.5q-114 43 -170 158q-55 117 -17 238q35 121 152 191t246 47q131 -19 223 -128 t95 -246q6 -142 -81 -257q-86 -115 -225 -157q-114 -35 -234 -7q83 -34 174 -34q195 0 333.5 138.5t138.5 333.5v2q-10 107 -63.5 202.5t-137.5 157.5q-102 77 -236 87t-243 -49q-116 -62 -177 -167q-61 -107 -52 -231z" />
<glyph unicode="&#xf218;" d="M128 464q0 -66 32 -125.5t92.5 -107t159 -75.5t222.5 -28q117 0 218.5 25t174 68t124 99.5t76.5 120.5t25 131q0 40 -6.5 74.5t-22.5 65t-30.5 53t-41.5 50t-45 43t-51 44.5l-85 66q-19 15 -28.5 24.5t-21 31t-11.5 45.5t12 47.5t21.5 34.5t32.5 33q37 29 59 48t52 52 t46 64t28 75.5t12 94.5q0 43 -8 82t-23.5 70.5t-30.5 55.5t-38 47.5t-35 34.5t-32 27h146l151 85h-485q-264 0 -421 -129q-73 -64 -111.5 -147.5t-38.5 -167.5q0 -56 16 -109.5t49.5 -100.5t79.5 -82.5t109 -56.5t136 -21q19 0 75 5q0 -2 -4 -10.5t-4.5 -10.5t-3.5 -9.5 t-4 -11l-3 -10.5t-2.5 -12.5t-1 -13t-0.5 -14.5q0 -26 5 -48t18.5 -45t20.5 -32.5t26 -34.5q-61 -4 -98 -7.5t-107 -14.5t-131.5 -32.5t-112.5 -53.5q-50 -29 -86.5 -66.5t-56.5 -76.5t-29 -74.5t-9 -69.5zM335 514q0 47 17 87.5t38.5 64.5t54 45t50.5 28.5t42 16.5 q35 11 76.5 19.5t77.5 12t58.5 5t34.5 1.5q35 0 54 -3q51 -36 82 -59t63.5 -50.5t50.5 -48.5t33.5 -46t21.5 -50.5t6 -55.5q0 -113 -91 -183.5t-255 -70.5q-187 0 -300.5 80t-113.5 207zM453 1591q0 110 51 174q28 35 73.5 56t91.5 21q56 0 105.5 -28.5t83.5 -74.5 t59 -103.5t36.5 -115.5t11.5 -110q0 -113 -59 -172q-18 -19 -44 -33.5t-56.5 -23.5t-58.5 -9q-58 0 -108 28.5t-83.5 73.5t-57.5 101.5t-34.5 111.5t-10.5 104zM1408 1024v128h256v256h128v-256h256v-128h-256v-256h-128v256h-256z" />
<glyph unicode="&#xf219;" d="M134.5 1267.5q5.5 80.5 41 179.5t102.5 191q70 78 153.5 135t167 86.5t172 45.5t169 15t156.5 -8t137.5 -21t107.5 -26.5t72 -22.5l25 -9q12 -5 32 -14.5t74.5 -45.5t101 -78.5t97 -114.5t78 -153t27.5 -194.5t-40 -238.5q-43 -89 -97 -157.5t-109.5 -110t-115.5 -69 t-115.5 -37t-107.5 -12t-95.5 4t-76 13t-49.5 13.5l-18 6v-277q-1 -3 -2 -9t-6.5 -23t-14 -34t-24.5 -39.5t-36 -42t-51.5 -39.5t-68.5 -33q-52 -19 -107 -20t-97 11.5t-76.5 27.5t-53.5 27l-18 13v280q33 -34 67 -55.5t67.5 -28.5t61.5 11t44 63v946h312v-538l65 -13 q206 -32 329 60q105 78 128 243q2 76 -15.5 141t-49 110.5t-72.5 82.5t-86.5 59.5t-91.5 39t-87.5 24t-73.5 11.5t-52 5h-19l-66 -2q-217 -16 -359 -141q-57 -50 -97 -115q-27 -45 -39.5 -93t-11 -88t10 -78.5t22 -67.5t25.5 -51t21 -33l9 -12l-225 -201q-7 9 -18.5 25 t-40.5 68.5t-49.5 107.5t-34.5 137.5t-8.5 163z" />
<glyph unicode="&#xf220;" d="M141 1431q0 133 65.5 245.5t178 178t245.5 65.5q141 0 260 -75q69 12 144 12q171 0 327 -66.5t269 -179.5t179.5 -269t66.5 -327q0 -96 -19 -181q51 -106 50 -217q0 -133 -65.5 -245.5t-178 -178t-244.5 -65.5q-123 0 -231 58q-79 -14 -155 -14q-171 0 -327 67t-269 180 t-179.5 269t-66.5 327q0 86 17 169q-67 116 -67 247zM537 775q0 -75 54 -153q52 -76 139 -123q119 -63 302 -63q150 0 263 46q111 46 171 130q59 85 59 188q0 88 -34 149q-35 62 -96 100q-58 39 -143 66q-77 25 -187 49q-89 20 -116 28q-35 9 -68 27q-33 15 -50 38 q-17 20 -17 49q0 46 52 80q54 36 146 36q97 0 141 -32q43 -32 75 -94q30 -48 51 -67q25 -22 72 -22q53 0 87 36q34 35 34 81t-25 96q-24 47 -82 92q-57 45 -139 70q-86 26 -197 26q-139 0 -247 -40q-107 -39 -164 -113q-57 -73 -57 -170q0 -102 55 -170q52 -65 144 -105 q95 -40 221 -66q93 -20 154 -38q57 -19 90 -50q33 -30 33 -80q0 -64 -62 -105q-65 -44 -170 -44q-78 0 -123 22q-47 22 -70 54q-27 34 -49 86q-21 49 -49 72q-32 26 -75 26q-52 0 -87 -33q-36 -33 -36 -79z" />
<glyph unicode="&#xf221;" d="M384 384v640h192q49 0 104 47t103.5 127.5t80.5 204.5t32 261q0 5 0.5 13.5t4 31t9.5 39t19 30.5t31 14q33 0 77.5 -42t79.5 -119t35 -159q0 -85 -8 -165t-16 -117l-8 -38h416q53 0 90.5 -37.5t37.5 -90.5q0 -41 -24 -74t-62 -46q22 -33 22 -72q0 -41 -24 -74t-62 -46 q22 -33 22 -72q0 -53 -37.5 -90.5t-90.5 -37.5h-64q53 0 90.5 -37.5t37.5 -90.5t-37.5 -90.5t-90.5 -37.5h-448q-65 0 -123 20t-93.5 44t-80.5 44t-87 20h-128z" />
<glyph unicode="&#xf222;" d="M205 1168q0 83 59 142t142 59q100 0 160 -83q183 97 412 106l92 457q5 22 23 33q18 12 39 7l313 -72q24 41 65.5 65.5t89.5 24.5q74 0 126.5 -52.5t52.5 -126.5t-52.5 -126.5t-126.5 -52.5q-71 0 -122 48.5t-56 119.5l-262 60l-77 -386q222 -12 397 -108q60 86 163 86 q83 0 141.5 -59t58.5 -142q0 -55 -28 -100.5t-74 -72.5q14 -50 14 -99q0 -135 -98.5 -250t-267.5 -181.5t-368 -66.5t-368.5 66.5t-268 181t-98.5 249.5q0 50 16 104q-44 27 -70.5 71.5t-26.5 97.5zM307 1168q0 -47 40 -75q47 75 132 137q-29 36 -73 36q-41 0 -70 -28.5 t-29 -69.5zM388 896q0 -107 85 -198t230.5 -144t317.5 -53q171 0 316.5 53t230.5 143.5t85 197.5q0 108 -85 199t-230.5 144t-316.5 53q-172 0 -317.5 -53t-230.5 -144t-85 -198zM672 982q0 46 32.5 79t78.5 33q47 0 79.5 -33t32.5 -79t-33 -79t-79 -33t-78.5 33t-32.5 79z M737 739.5q0 21.5 15 36.5t36 15t36 -15q56 -56 199 -56q145 0 201 56q15 15 36 15t36 -15t15 -36.5t-15 -36.5q-86 -86 -271 -86q-187 0 -273 86q-15 15 -15 36.5zM1153 982q0 46 32.5 79t79.5 33t79.5 -33t32.5 -79t-33 -79t-79 -33t-79 33t-33 79zM1523 1728 q0 -32 22.5 -54.5t54.5 -22.5t54.5 22.5t22.5 54.5t-22.5 54.5t-54.5 22.5t-54.5 -22.5t-22.5 -54.5zM1567 1227q83 -61 131 -138q43 31 43 79q0 40 -28.5 69t-69.5 29q-45 0 -76 -39z" />
<glyph unicode="&#xf223;" d="M256 849v209h263v-206q0 -33 23.5 -56.5t57.5 -23.5t57.5 23.5t23.5 56.5v487q5 136 104.5 230.5t238.5 94.5t238.5 -95.5t104.5 -231.5v-107l-157 -45l-105 48v92q0 34 -23.5 57t-57.5 23t-57.5 -23t-23.5 -57l-1 -481q-1 -138 -101.5 -235t-241.5 -97q-142 0 -242.5 99 t-100.5 238zM1105 846v210l105 -48l157 46v-212q0 -33 23.5 -56.5t57.5 -23.5t57.5 23.5t23.5 56.5v216h263v-209q0 -139 -100.5 -238t-242.5 -99t-242 97.5t-102 236.5z" />
<glyph unicode="&#xf224;" d="M256 1152v384q0 106 75 181t181 75h1024q106 0 181 -75t75 -181v-384q0 -209 -103 -385.5t-279.5 -279.5t-385.5 -103t-385.5 103t-279.5 279.5t-103 385.5zM512 1281q0 -53 38 -91l362 -362l4 4q37 -64 108 -64t108 64l5 -4l362 362q37 38 37 91t-37 90t-91 37 q-53 0 -90 -37l-294 -294l-293 294q-37 37 -91 37t-90 -37q-38 -37 -38 -90z" />
<glyph unicode="&#xf225;" d="M128 930l365 291l531 -328l-369 -308zM128 1513l527 345l369 -308l-531 -329zM497 508v115l158 -103l370 307l370 -307l158 103v-115l-528 -317zM1024 893l532 328l364 -291l-527 -345zM1024 1550l369 308l527 -345l-364 -292z" />
<glyph unicode="&#xf300;" d="M256 896v384q0 106 75 181t181 75h1024q106 0 181 -75t75 -181v-384q0 -106 -75 -181t-181 -75h-448l-448 -448v448h-128q-106 0 -181 75t-75 181z" />
<glyph unicode="&#xf301;" d="M384 512v1024h384l64 -128h448v-128h-640l-128 -256h128l64 128h960l-256 -640h-1024z" />
<glyph unicode="&#xf302;" d="M256 768l768 768h512v-512l-768 -768zM1152 1280q0 -53 37.5 -90.5t90.5 -37.5t90.5 37.5t37.5 90.5t-37.5 90.5t-90.5 37.5t-90.5 -37.5t-37.5 -90.5z" />
<glyph unicode="&#xf303;" d="M256 1088q0 143 55.5 273.5t150 225t225 150t273.5 55.5t273.5 -55.5t225 -150t150 -225t55.5 -273.5t-55.5 -273.5t-150 -225t-225 -150t-273.5 -55.5t-273.5 55.5t-225 150t-150 225t-55.5 273.5zM384 1088q0 -117 45.5 -223.5t123 -184t184 -123t223.5 -45.5 t223.5 45.5t184 123t123 184t45.5 223.5t-45.5 223.5t-123 184t-184 123t-223.5 45.5t-223.5 -45.5t-184 -123t-123 -184t-45.5 -223.5zM896 1062v474h128v-421l298 -298l-90 -91z" />
<glyph unicode="&#xf304;" d="M512 384v256q0 159 112.5 271.5t271.5 112.5h256q159 0 271.5 -112.5t112.5 -271.5v-256h-1024zM768 1408q0 106 75 181t181 75t181 -75t75 -181t-75 -181t-181 -75t-181 75t-75 181z" />
<glyph unicode="&#xf305;" d="M256 384v1280h256v128h128v-128h640v128h128v-128h256v-1280h-1408zM384 640q0 -53 37.5 -90.5t90.5 -37.5h896q53 0 90.5 37.5t37.5 90.5v640q0 53 -37.5 90.5t-90.5 37.5h-896q-53 0 -90.5 -37.5t-37.5 -90.5v-640zM768 1216q0 26 19 45t45 19h128q26 0 45 -19t19 -45 v-512q0 -26 -19 -45t-45 -19t-45 19t-19 45v448h-64q-26 0 -45 19t-19 45z" />
<glyph unicode="&#xf306;" d="M256 384v1280h256v128h128v-128h640v128h128v-128h256v-1280h-1408zM384 640q0 -53 37.5 -90.5t90.5 -37.5h896q53 0 90.5 37.5t37.5 90.5v640q0 53 -37.5 90.5t-90.5 37.5h-896q-53 0 -90.5 -37.5t-37.5 -90.5v-640zM768 1216q0 26 19 45t45 19h256h2h1h3 q22 -2 38.5 -18t19.5 -39v-2v-2v-1v-2q0 -5 -2 -15l-128 -512q-6 -26 -28.5 -40t-48.5 -7q-26 6 -40 28.5t-7 48.5l108 433h-174q-26 0 -45 19t-19 45z" />
<glyph unicode="&#xf307;" d="M256 384v1280h256v128h128v-128h640v128h128v-128h256v-1280h-1408zM384 640q0 -53 37.5 -90.5t90.5 -37.5h896q53 0 90.5 37.5t37.5 90.5v640q0 53 -37.5 90.5t-90.5 37.5h-896q-53 0 -90.5 -37.5t-37.5 -90.5v-640zM512 640v128h128v-128h-128zM512 896v128h128v-128 h-128zM768 640v128h128v-128h-128zM768 896v128h128v-128h-128zM768 1152v128h128v-128h-128zM1024 640v128h128v-128h-128zM1024 896v128h128v-128h-128zM1024 1152v128h128v-128h-128zM1280 896v128h128v-128h-128zM1280 1152v128h128v-128h-128z" />
<glyph unicode="&#xf308;" d="M342 342q12 45 22 71t38 66.5t76 88.5l395 395l-227 227l181 181q37 -37 90.5 -37t91.5 37l181 181q38 38 38 91t-38 90l181 181l543 -543l-181 -181q-37 38 -90 38t-91 -38l-181 -181q-37 -37 -37 -90t37 -91l-181 -181l-227 226l-395 -395q-68 -68 -113.5 -93 t-112.5 -43z" />
<glyph unicode="&#xf400;" d="M256 1216q0 117 45.5 223.5t123 184t184 123t223.5 45.5t223.5 -45.5t184 -123t123 -184t45.5 -223.5q0 -184 -111 -337l495 -495l-128 -128l-495 495q-153 -111 -337 -111q-117 0 -223.5 45.5t-184 123t-123 184t-45.5 223.5zM384 1216q0 -185 131.5 -316.5 t316.5 -131.5q186 0 317 131.5t131 316.5t-131 316.5t-317 131.5q-185 0 -316.5 -131.5t-131.5 -316.5z" />
<glyph unicode="&#xf401;" d="M256 1216q0 117 45.5 223.5t123 184t184 123t223.5 45.5t223.5 -45.5t184 -123t123 -184t45.5 -223.5q0 -184 -111 -337l495 -495l-128 -128l-495 495q-153 -111 -337 -111q-117 0 -223.5 45.5t-184 123t-123 184t-45.5 223.5zM384 1216q0 -185 131.5 -316.5 t316.5 -131.5q186 0 317 131.5t131 316.5t-131 316.5t-317 131.5q-185 0 -316.5 -131.5t-131.5 -316.5zM512 1152v128h640v-128h-640z" />
<glyph unicode="&#xf402;" d="M256 1216q0 117 45.5 223.5t123 184t184 123t223.5 45.5t223.5 -45.5t184 -123t123 -184t45.5 -223.5q0 -184 -111 -337l495 -495l-128 -128l-495 495q-153 -111 -337 -111q-117 0 -223.5 45.5t-184 123t-123 184t-45.5 223.5zM384 1216q0 -185 131.5 -316.5 t316.5 -131.5q186 0 317 131.5t131 316.5t-131 316.5t-317 131.5q-185 0 -316.5 -131.5t-131.5 -316.5zM512 1152v128h256v256h128v-256h256v-128h-256v-256h-128v256h-256z" />
<glyph unicode="&#xf403;" d="M0 1024l506 506q101 103 234.5 160.5t283.5 57.5t283.5 -57.5t233.5 -159.5l507 -507l-506 -507q-101 -103 -234.5 -160t-283.5 -57t-283.5 57.5t-233.5 160.5zM272 1024l370 -371q77 -78 175.5 -119.5t206.5 -41.5t206 41.5t174 118.5l373 372l-371 371 q-158 161 -382 161q-108 0 -206.5 -41t-173.5 -119zM640 1024q0 159 112.5 271.5t271.5 112.5t271.5 -112.5t112.5 -271.5t-112.5 -271.5t-271.5 -112.5t-271.5 112.5t-112.5 271.5zM1024 1152q0 -53 37.5 -90.5t90.5 -37.5t90.5 37.5t37.5 90.5t-37.5 90.5t-90.5 37.5 t-90.5 -37.5t-37.5 -90.5z" />
<glyph unicode="&#xf404;" d="M0 1024l506 506q101 103 234.5 160.5t283.5 57.5q193 0 358 -95l-143 -143q-103 46 -215 46q-108 0 -206.5 -41t-173.5 -119l-372 -372l240 -240l-136 -136zM339 429l90 -90l1280 1280l-90 90zM640 1024q0 159 112.5 271.5t271.5 112.5q44 0 98 -14l-468 -468 q-14 54 -14 98zM666 395l143 143q103 -46 215 -46q108 0 206 41.5t174 118.5l373 372l-241 241l136 135l376 -376l-506 -507q-101 -103 -234.5 -160t-283.5 -57q-193 0 -358 95zM926 654l468 468q14 -54 14 -98q0 -159 -112.5 -271.5t-271.5 -112.5q-44 0 -98 14z" />
<glyph unicode="&#xf405;" d="M640 768l320 320l-320 320l128 128l320 -320l320 320l128 -128l-320 -320l320 -320l-128 -128l-320 320l-320 -320z" />
<glyph unicode="&#xf406;" d="M128 256l832 832l-832 832l128 128l832 -832l832 832l128 -128l-832 -832l832 -832l-128 -128l-832 832l-832 -832z" />
<glyph unicode="&#xf407;" d="M384 1280v128l256 128q0 53 37.5 90.5t90.5 37.5h384q53 0 90.5 -37.5t37.5 -90.5l256 -128v-128h-1152zM512 512v704h128v-704h128v704h128v-704h128v704h128v-704h128v704h128v-704q0 -53 -37.5 -90.5t-90.5 -37.5h-640q-53 0 -90.5 37.5t-37.5 90.5zM768 1472 q0 -26 19 -45t45 -19h256q26 0 45 19t19 45t-19 45t-45 19h-256q-26 0 -45 -19t-19 -45z" />
<glyph unicode="&#xf408;" d="M256 1151l476 -330l-183 -535l475 332l475 -332l-183 535l476 330l-587 -1l-181 535l-180 -535z" />
<glyph unicode="&#xf409;" d="M384 1152l640 512l640 -512l-128 -128v-512h-1024v512zM896 576h256v448h-256v-448z" />
<glyph unicode="&#xf410;" d="M256 512v704l768 -384l768 384v-704h-1536zM256 1408v128h1536v-128l-768 -384z" />
<glyph unicode="&#xf411;" d="M384 384v448l896 896l448 -448l-896 -896h-448zM512 768l256 -256l128 128l-256 256zM685 941l96 -96l595 595l-96 96zM845 781l96 -96l595 595l-96 96z" />
<glyph unicode="&#xf412;" d="M256 640v704l384 384v-704h640v448l640 -640l-640 -640v448h-1024z" />
<glyph unicode="&#xf413;" d="M256 448q0 -80 56 -136t136 -56t136 56t56 136t-56 136t-136 56t-136 -56t-56 -136zM256 1024v256q209 0 398.5 -81t326.5 -218t218 -326.5t81 -398.5h-256q0 209 -103 385.5t-279.5 279.5t-385.5 103zM256 1536v256q209 0 408 -55t367.5 -154t310.5 -241t241 -310.5 t154 -367.5t55 -408h-256q0 260 -101.5 497t-273 408.5t-408.5 273t-497 101.5z" />
<glyph unicode="&#xf414;" d="M21 358q-57 102 31 244l760 1237q57 93 134.5 126.5t155 0t135.5 -126.5l759 -1237q88 -142 31 -244t-224 -102h-1557q-168 0 -225 102zM883 1536l51 -640h179l52 640h-282zM896 640q0 -53 37.5 -90.5t90.5 -37.5t90.5 37.5t37.5 90.5t-37.5 90.5t-90.5 37.5t-90.5 -37.5 t-37.5 -90.5z" />
<glyph unicode="&#xf415;" d="M128 1024v256h310q75 172 233.5 278t352.5 106q130 0 246.5 -50t204.5 -139q37 -37 37 -90t-37 -91t-90 -38t-91 38q-116 114 -270 114q-159 0 -271.5 -112.5t-112.5 -271.5h-512zM536 665q0 53 38 90t91 37t90 -37q113 -115 269 -115q159 0 271.5 112.5t112.5 271.5h512 v-256h-310q-75 -172 -233.5 -278t-352.5 -106q-130 0 -246 50t-205 139l1 1q-38 38 -38 91zM832 1024q0 80 56 136t136 56t136 -56t56 -136t-56 -136t-136 -56t-136 56t-56 136z" />
<glyph unicode="&#xf416;" d="M512 832v320h128v-320q0 -133 93.5 -226.5t226.5 -93.5t226.5 93.5t93.5 226.5v640q0 80 -56 136t-136 56t-136 -56t-56 -136v-512q0 -26 19 -45t45 -19t45 19t19 45v452h128v-452q0 -80 -56 -136t-136 -56t-136 56t-56 136v512q0 133 93.5 226.5t226.5 93.5t226.5 -93.5 t93.5 -226.5v-640q0 -185 -131.5 -316.5t-316.5 -131.5t-316.5 131.5t-131.5 316.5z" />
<glyph unicode="&#xf417;" d="M384 1216q0 117 45.5 223.5t123 184t184 123t223.5 45.5t223.5 -45.5t184 -123t123 -184t45.5 -223.5t-44.5 -222.5t-124.5 -185.5l-407 -406l-407 406q-80 80 -124.5 185.5t-44.5 222.5zM640 1216q0 -133 93.5 -226.5t226.5 -93.5t226.5 93.5t93.5 226.5t-93.5 226.5 t-226.5 93.5t-226.5 -93.5t-93.5 -226.5z" />
<glyph unicode="&#xf418;" d="M608 1056l128 128l224 -192l448 512l128 -96l-512 -768h-128z" />
<glyph unicode="&#xf419;" d="M0 256v256h2048v-256h-2048zM0 896v256h2048v-256h-2048zM0 1536v256h2048v-256h-2048z" />
<glyph unicode="&#xf420;" d="M256 1024q0 155 60 294.5t167 246.5l-227 227h640v-640l-232 232q-72 -71 -112 -163.5t-40 -196.5q0 -176 108.5 -313.5t275.5 -180.5v-262q-180 30 -326 137t-230 269.5t-84 349.5zM1152 256v640l19 -19l213 -213q71 71 111.5 164t40.5 196q0 176 -108.5 313.5 t-275.5 180.5v263q180 -31 326 -137.5t230 -269.5t84 -350q0 -155 -60 -294.5t-167 -246.5l227 -227h-640z" />
<glyph unicode="&#xf421;" d="M384 896v256h1152v-256h-1152z" />
<glyph unicode="&#xf422;" d="M384 512v1024h1152v-1024h-1152zM512 640h896v640h-896v-640z" />
<glyph unicode="&#xf423;" d="M83 832l373 671l112 -62l-267 -481h403v-384h-128v256h-493zM768 1024q0 87 43 160.5t116.5 116.5t160.5 43t160.5 -43t116.5 -116.5t43 -160.5t-43 -160.5t-116.5 -116.5t-160.5 -43t-160.5 43t-116.5 116.5t-43 160.5zM896 1024q0 -79 56.5 -135.5t135.5 -56.5 t135.5 56.5t56.5 135.5t-56.5 135.5t-135.5 56.5t-135.5 -56.5t-56.5 -135.5zM1427 832l373 671l112 -62l-267 -481h403v-384h-128v256h-493z" />
<glyph unicode="&#xf424;" d="M256 640v768l384 384h768l384 -384v-768l-384 -384h-768zM883 1536l51 -640h179l52 640h-282zM896 640q0 -53 37.5 -90.5t90.5 -37.5t90.5 37.5t37.5 90.5t-37.5 90.5t-90.5 37.5t-90.5 -37.5t-37.5 -90.5z" />
<glyph unicode="&#xf425;" d="M384 384v1280h256q0 53 37.5 90.5t90.5 37.5h384q53 0 90.5 -37.5t37.5 -90.5h256v-1280h-1152zM512 512h896v1024h-128v-128h-640v128h-128v-1024zM640 704q0 26 19 45t45 19t45 -19t19 -45t-19 -45t-45 -19t-45 19t-19 45zM640 960q0 26 19 45t45 19t45 -19t19 -45 t-19 -45t-45 -19t-45 19t-19 45zM640 1216q0 26 19 45t45 19t45 -19t19 -45t-19 -45t-45 -19t-45 19t-19 45zM768 1600q0 -26 19 -45t45 -19h256q26 0 45 19t19 45t-19 45t-45 19h-256q-26 0 -45 -19t-19 -45zM896 640v128h384v-128h-384zM896 896v128h384v-128h-384z M896 1152v128h384v-128h-384z" />
<glyph unicode="&#xf426;" d="M128 768q0 106 75 181t181 75h7q-7 29 -7 64q0 133 93.5 226.5t226.5 93.5q134 0 228 -96q47 101 140.5 162.5t207.5 61.5q159 0 271.5 -112.5t112.5 -271.5q0 -62 -23 -128h23q106 0 181 -75t75 -181t-75 -181t-181 -75h-1280q-106 0 -181 75t-75 181z" />
<glyph unicode="&#xf427;" d="M384 384v288l455 455l-1 1q-74 74 -74 180t74 181l233 233q75 74 181 74t180 -74l286 -286q74 -75 74 -180.5t-74 -180.5l-233 -233q-74 -73 -178.5 -74t-179.5 71l-455 -455h-288zM1088 1360l256 -256l160 160l-256 256z" />
<glyph unicode="&#xf428;" d="M768 1024q0 106 75 181t181 75t181 -75t75 -181t-75 -181t-181 -75t-181 75t-75 181z" />
<glyph unicode="&#xf429;" d="M384 896v128h896l-343 343l87 86l493 -493l-493 -493l-87 86l343 343h-896z" />
<glyph unicode="&#xf430;" d="M531 960l493 -493l87 86l-343 343h896v128h-896l343 343l-87 86z" />
<glyph unicode="&#xf431;" d="M384 1152l128 128l448 -448l448 448l128 -128l-576 -576z" />
<glyph unicode="&#xf432;" d="M384 768l576 576l576 -576l-128 -128l-448 448l-448 -448z" />
<glyph unicode="&#xf433;" d="M0 0v896l896 -896h-896z" />
<glyph unicode="&#xf434;" d="M1152 0l896 896v-896h-896z" />
<glyph unicode="&#xf435;" d="M384 512l640 640l640 -640h-1280zM384 1280v128h1280v-128h-1280z" />
<glyph unicode="&#xf436;" d="M512 640v128h128v-128h-128zM512 896v128h128v-128h-128zM512 1152v128h128v-128h-128zM512 1408v128h128v-128h-128zM768 640v128h128v-128h-128zM768 896v128h128v-128h-128zM768 1152v128h128v-128h-128zM768 1408v128h128v-128h-128zM1024 640v128h128v-128h-128z M1024 896v128h128v-128h-128zM1024 1152v128h128v-128h-128zM1024 1408v128h128v-128h-128zM1280 640v128h128v-128h-128zM1280 896v128h128v-128h-128zM1280 1152v128h128v-128h-128zM1280 1408v128h128v-128h-128z" />
<glyph unicode="&#xf437;" d="M512 512v1024q0 106 75 181t181 75h512q106 0 181 -75t75 -181v-1024q0 -106 -75 -181t-181 -75h-512q-106 0 -181 75t-75 181zM640 768h768v768h-768v-768zM896 512q0 -53 37.5 -90.5t90.5 -37.5t90.5 37.5t37.5 90.5t-37.5 90.5t-90.5 37.5t-90.5 -37.5t-37.5 -90.5z " />
<glyph unicode="&#xf438;" d="M256 1024v256h512v128l384 -256l-384 -256v128h-512zM512 512v384h128v-128h768v768h-768v-128h-128v128q0 106 75 181t181 75h512q106 0 181 -75t75 -181v-1024q0 -106 -75 -181t-181 -75h-512q-106 0 -181 75t-75 181zM896 512q0 -53 37.5 -90.5t90.5 -37.5t90.5 37.5 t37.5 90.5t-37.5 90.5t-90.5 37.5t-90.5 -37.5t-37.5 -90.5z" />
<glyph unicode="&#xf439;" d="M384 1152h1280q0 -231 -145.5 -406.5t-366.5 -220.5v-269h-256v269q-221 45 -366.5 220.5t-145.5 406.5zM640 1280v384q0 53 37.5 90.5t90.5 37.5t90.5 -37.5t37.5 -90.5v-384h-256zM1152 1280v384q0 53 37.5 90.5t90.5 37.5t90.5 -37.5t37.5 -90.5v-384h-256z" />
<glyph unicode="&#xf440;" d="M128 768q0 106 75 181t181 75h6q-6 32 -6 64q0 133 93.5 226.5t226.5 93.5q134 0 228 -96q47 101 140.5 162.5t207.5 61.5q159 0 271.5 -112.5t112.5 -271.5q0 -62 -23 -128h23q106 0 181 -75t75 -181t-75 -181t-181 -75h-384v256h-512v-256h-384q-106 0 -181 75t-75 181 zM640 384h256v256h256v-256h256l-384 -384z" />
<glyph unicode="&#xf441;" d="M128 768q0 106 75 181t181 75h6q-6 32 -6 64q0 133 93.5 226.5t226.5 93.5q134 0 228 -96q47 101 140.5 162.5t207.5 61.5q159 0 271.5 -112.5t112.5 -271.5q0 -62 -23 -128h23q106 0 181 -75t75 -181t-75 -181t-181 -75h-512v256h256l-384 384l-384 -384h256v-256h-512 q-106 0 -181 75t-75 181z" />
<glyph unicode="&#xf442;" d="M512 512v896h512l-128 -128h-256v-640h640v256l128 128v-512h-896zM896 987l550 549h-422v128h640v-640h-128v422l-550 -550z" />
<glyph unicode="&#xf443;" d="M512 384v1280h640l384 -384v-896h-1024zM640 512h768v640h-384v384h-384v-1024z" />
<glyph unicode="&#xf444;" d="M384 512v1024q0 106 75 181t181 75h1024v-1152h-64q-53 0 -90.5 -37.5t-37.5 -90.5t37.5 -90.5t90.5 -37.5h64v-128h-1024q-106 0 -181 75t-75 181zM512 512q0 -53 37.5 -90.5t90.5 -37.5h818q-50 55 -50 128t50 128h-818q-53 0 -90.5 -37.5t-37.5 -90.5z" />
<glyph unicode="&#xf445;" d="M160 747l232 201q-8 67 -8 76q0 8 8 75l-232 201l58 139l305 -21q47 60 107 107l-21 305l139 58l201 -232q67 8 75 8t75 -8l201 232l140 -58l-22 -305q56 -44 107 -107l305 22l58 -139l-232 -201q8 -67 8 -76q0 -8 -8 -75l232 -201l-58 -140l-305 22q-44 -56 -107 -107 l22 -305l-139 -58l-201 232q-67 -8 -76 -8q-8 0 -75 8l-201 -232l-139 58l21 305q-56 44 -107 107l-305 -22zM768 1024q0 -106 75 -181t181 -75t181 75t75 181t-75 181t-181 75t-181 -75t-75 -181z" />
<glyph unicode="&#xf446;" d="M256 1024q0 209 103 385.5t279.5 279.5t385.5 103t385.5 -103t279.5 -279.5t103 -385.5t-103 -385.5t-279.5 -279.5t-385.5 -103t-385.5 103t-279.5 279.5t-103 385.5zM512 1024q0 -212 150 -362t362 -150q135 0 259 72l-699 699q-72 -126 -72 -259zM765 1464l699 -699 q72 123 72 259q0 212 -150 362t-362 150q-136 0 -259 -72z" />
<glyph unicode="&#xf447;" d="M256 1664v128h384v-256h1152l-256 -640h-896v-128h896v-128h-1024v1024h-256zM512 384q0 53 37.5 90.5t90.5 37.5t90.5 -37.5t37.5 -90.5t-37.5 -90.5t-90.5 -37.5t-90.5 37.5t-37.5 90.5zM1280 384q0 53 37.5 90.5t90.5 37.5t90.5 -37.5t37.5 -90.5t-37.5 -90.5 t-90.5 -37.5t-90.5 37.5t-37.5 90.5z" />
<glyph unicode="&#xf448;" d="M512 384v1280h384v-1280h-384zM1152 384v1280h384v-1280h-384z" />
<glyph unicode="&#xf449;" d="M512 512v1024h1024v-1024h-1024z" />
<glyph unicode="&#xf450;" d="M256 384v1280h384v-1280h-384zM768 1024l1024 640v-1280z" />
<glyph unicode="&#xf451;" d="M256 384v1280l1024 -640zM1408 384v1280h384v-1280h-384z" />
<glyph unicode="&#xf452;" d="M512 384v1280l1024 -640z" />
<glyph unicode="&#xf453;" d="M256 256v1536q0 106 75 181t181 75h1024q106 0 181 -75t75 -181v-1536q0 -106 -75 -181t-181 -75h-1024q-106 0 -181 75t-75 181zM512 512h1024v1280h-1024v-1280zM896 256q0 -53 37.5 -90.5t90.5 -37.5t90.5 37.5t37.5 90.5t-37.5 90.5t-90.5 37.5t-90.5 -37.5 t-37.5 -90.5z" />
<glyph unicode="&#xf454;" d="M128 1024v256h512v128l384 -256l-384 -256v128h-512zM256 256v640h256v-384h1024v1280h-1024v-384h-256v384q0 106 75 181t181 75h1024q106 0 181 -75t75 -181v-1536q0 -106 -75 -181t-181 -75h-1024q-106 0 -181 75t-75 181zM896 256q0 -53 37.5 -90.5t90.5 -37.5 t90.5 37.5t37.5 90.5t-37.5 90.5t-90.5 37.5t-90.5 -37.5t-37.5 -90.5z" />
<glyph unicode="&#xf455;" d="M256 1024q0 209 103 385.5t279.5 279.5t385.5 103t385.5 -103t279.5 -279.5t103 -385.5t-103 -385.5t-279.5 -279.5t-385.5 -103t-385.5 103t-279.5 279.5t-103 385.5zM896 1408q0 -53 37.5 -90.5t90.5 -37.5t90.5 37.5t37.5 90.5t-37.5 90.5t-90.5 37.5t-90.5 -37.5 t-37.5 -90.5zM928 512h192v640h-192v-640z" />
<glyph unicode="&#xf456;" d="M256 1024q0 209 103 385.5t279.5 279.5t385.5 103t385.5 -103t279.5 -279.5t103 -385.5t-103 -385.5t-279.5 -279.5t-385.5 -103t-385.5 103t-279.5 279.5t-103 385.5zM883 1536l51 -640h179l52 640h-282zM896 640q0 -53 37.5 -90.5t90.5 -37.5t90.5 37.5t37.5 90.5 t-37.5 90.5t-90.5 37.5t-90.5 -37.5t-37.5 -90.5z" />
<glyph unicode="&#xf457;" d="M256 1024q0 209 103 385.5t279.5 279.5t385.5 103t385.5 -103t279.5 -279.5t103 -385.5t-103 -385.5t-279.5 -279.5t-385.5 -103t-385.5 103t-279.5 279.5t-103 385.5zM720 1442l92 -180q134 71 234 71q38 0 65 -16q26 -17 26 -44q0 -35 -24 -63q-24 -27 -77 -61 q-68 -42 -95 -87q-26 -44 -26 -109v-57h204v34q0 29 17 49q18 21 87 66q83 53 120 111t37 139q0 111 -84 176q-85 65 -232 65q-180 0 -344 -94zM896 640q0 -53 37.5 -90.5t90.5 -37.5t90.5 37.5t37.5 90.5t-37.5 90.5t-90.5 37.5t-90.5 -37.5t-37.5 -90.5z" />
<glyph unicode="&#xf458;" d="M128 384v1280l768 -480v480l1024 -640l-1024 -640v480z" />
<glyph unicode="&#xf459;" d="M128 1024l1024 -640v480l768 -480v1280l-768 -480v480z" />
<glyph unicode="&#xf460;" d="M256 1280h128l86 256h340l86 -256l-256 -768h-128zM533 1280h214l-43 128h-128zM768 512l256 768h128l86 256h340l86 -256h128l-256 -768h-768zM1301 1280h214l-43 128h-128z" />
<glyph unicode="&#xf461;" d="M256 1261q8 -158 120 -264l648 -613l648 613q112 106 120 264t-93 276t-251.5 126.5t-262.5 -97.5l-161 -153l-161 153q-112 106 -262.5 97.5t-251.5 -126.5t-93 -276z" />
<glyph unicode="&#xf462;" d="M102 1024l304 -455l213 142l-209 313l209 313l-213 142zM772 543l248 -62l256 1024l-248 62zM1430 711l213 -142l303 455l-303 455l-213 -142l208 -313z" />
<glyph unicode="&#xf463;" d="M0 512v704l768 -384l256 128v-448h-1024zM0 1408v128h1536v-128l-768 -384zM1152 384v640q0 53 37.5 90.5t90.5 37.5h640q53 0 90.5 -37.5t37.5 -90.5v-640q0 -53 -37.5 -90.5t-90.5 -37.5h-640q-53 0 -90.5 37.5t-37.5 90.5zM1280 640h256v-256h128v256h256v128h-256 v256h-128v-256h-256v-128z" />
<glyph unicode="&#xf464;" d="M0 512v704l768 -384l256 128v-448h-1024zM0 1408v128h1536v-128l-768 -384zM1152 384v640q0 53 37.5 90.5t90.5 37.5h640q53 0 90.5 -37.5t37.5 -90.5v-640q0 -53 -37.5 -90.5t-90.5 -37.5h-640q-53 0 -90.5 37.5t-37.5 90.5zM1280 640h640v128h-640v-128z" />
<glyph unicode="&#xf465;" d="M0 512v704l768 -384l256 128v-448h-1024zM0 1408v128h1536v-128l-768 -384zM1152 384v640q0 53 37.5 90.5t90.5 37.5h640q53 0 90.5 -37.5t37.5 -90.5v-640q0 -53 -37.5 -90.5t-90.5 -37.5h-640q-53 0 -90.5 37.5t-37.5 90.5zM1260 656l272 -272l452 453l-90 90 l-362 -362l-181 181z" />
<glyph unicode="&#xf466;" d="M0 1024l640 640v-320l-320 -320l320 -320v-320zM512 1024l640 640v-384h256q212 0 362 -150t150 -362v-300l-150 150q-74 74 -168 112t-194 38h-256v-384z" />
<glyph unicode="&#xf467;" d="M384 1024l640 640v-384h256q212 0 362 -150t150 -362v-300l-150 150q-74 74 -168 112t-194 38h-256v-384z" />
<glyph unicode="&#xf468;" d="M256 256v1536h256v-1536h-256zM640 896v768q35 0 63.5 13t54 32t56.5 38t85 32t125 13q70 0 125.5 -13t93 -32l75 -38t93 -32t125.5 -13h256v-768h-256q-70 0 -125.5 13t-93 32l-75 38t-93 32t-125.5 13q-71 0 -125 -13t-85 -32t-56.5 -38t-54 -32t-63.5 -13z" />
<glyph unicode="&#xf469;" d="M256 512v768h1536v-768h-256v384h-1024v-384h-256zM640 640v128h768v-128q0 -158 113 -271l112 -113h-768l-112 113q-113 113 -113 271zM640 1408h768v256h-768v-256z" />
<glyph unicode="&#xf470;" d="M384 384v640q0 53 37.5 90.5t90.5 37.5v128q0 212 150 362t362 150t362 -150t150 -362v-128q53 0 90.5 -37.5t37.5 -90.5v-640q0 -53 -37.5 -90.5t-90.5 -37.5h-1024q-53 0 -90.5 37.5t-37.5 90.5zM768 1152h512v128q0 106 -75 181t-181 75t-181 -75t-75 -181v-128z" />
<glyph unicode="&#xf471;" d="M512 512v1024h512q106 0 181 -75t75 -181q0 -87 -57 -159q83 -39 134 -117t51 -172q0 -133 -93.5 -226.5t-226.5 -93.5h-576zM768 640h192q80 0 136 56t56 136t-56 136t-136 56h-192v-384zM768 1152h128q53 0 90.5 37.5t37.5 90.5t-37.5 90.5t-90.5 37.5h-128v-256z" />
<glyph unicode="&#xf472;" d="M640 512l40 128h128l240 768h-128l40 128h448l-40 -128h-128l-240 -768h128l-40 -128h-448z" />
<glyph unicode="&#xf473;" d="M384 384v1280h1280v-1280h-1280zM512 512h1024v576l-128 192l-448 -672l-192 288zM640 1280q0 -53 37.5 -90.5t90.5 -37.5t90.5 37.5t37.5 90.5t-37.5 90.5t-90.5 37.5t-90.5 -37.5t-37.5 -90.5z" />
<glyph unicode="&#xf474;" d="M128 256v384l154 -154l230 154l-154 -230l154 -154h-384zM128 1408v384h384l-154 -154l154 -230l-230 154zM640 768v512h768v-512h-768zM1536 256l154 154l-154 230l230 -154l154 154v-384h-384zM1536 1408l154 230l-154 154h384v-384l-154 154z" />
<glyph unicode="&#xf500;" d="M128 0l960 960l960 -960h-1920z" />
<glyph unicode="&#xf501;" d="M0 128l960 960l-960 960v-1920z" />
<glyph unicode="&#xf502;" d="M128 2048l960 -960l960 960h-1920z" />
<glyph unicode="&#xf503;" d="M1088 1088l960 960v-1920z" />
</font>
</defs>
</svg>
